<?xml version="1.0" standalone="no"?>
<!DOCTYPE svg PUBLIC "-//W3C//DTD SVG 1.1//EN" "http://www.w3.org/Graphics/SVG/1.1/DTD/svg11.dtd">
<svg xmlns="http://www.w3.org/2000/svg">
<metadata>Generated by Fontastic.me</metadata>
<defs>
<font id="mijn-omgeving" horiz-adv-x="512">
<font-face font-family="mijn-omgeving" units-per-em="512" ascent="480" descent="-32"/>
<missing-glyph horiz-adv-x="512" />

<glyph glyph-name="alert" unicode="&#97;" d="M384 427l-256 0c-24 0-43-19-43-43l0-192c0-24 19-43 43-43l64 0 0-56c0-4 4-8 8-8 2 0 3 1 5 2l83 62 96 0c24 0 43 19 43 43l0 192c0 24-19 43-43 43z m21-235c0-12-9-21-21-21l-103 0-6-5-62-46 0 51-85 0c-12 0-21 9-21 21l0 192c0 12 9 21 21 21l256 0c12 0 21-9 21-21z m-100 137l-8 8c-1 1-2 2-3 2-2 0-3-1-4-2l-34-34-34 34c-1 1-2 2-4 2-1 0-2-1-4-2l-7-8c-2-2-2-5 0-7l34-34-34-34c-2-2-2-5 0-7l7-8c2-1 3-2 4-2 2 0 3 1 4 2l34 34 34-34c1-1 2-2 4-2 1 0 2 1 4 2l7 8c2 2 2 5 0 7l-34 34 34 34c2 2 2 5 0 7z"/>
<glyph glyph-name="angle-down" unicode="&#98;" d="M245 158l-155 157c-6 6-6 17 0 23l9 9c7 7 17 7 23 0l134-136 134 136c6 6 16 6 23 0l9-9c6-7 6-17 0-23l-155-157c-6-6-16-6-22 0z"/>
<glyph glyph-name="angle-left" unicode="&#99;" d="M165 267l157 155c6 6 16 6 22 0l10-9c6-7 6-17 0-23l-136-134 136-134c6-6 6-16 0-23l-10-9c-6-6-16-6-22 0l-157 155c-7 6-7 16 0 22z"/>
<glyph glyph-name="angle-right" unicode="&#100;" d="M354 245l-157-155c-6-6-17-6-23 0l-9 9c-7 7-7 17 0 23l136 134-136 134c-6 6-6 16 0 23l9 9c7 6 17 6 23 0l157-155c6-6 6-16 0-22z"/>
<glyph glyph-name="angle-top" unicode="&#101;" d="M267 347l155-157c6-6 6-16 0-22l-9-10c-7-6-17-6-23 0l-134 136-134-136c-6-6-16-6-23 0l-9 10c-6 6-6 16 0 22l155 157c6 7 16 7 22 0z"/>
<glyph glyph-name="arrow-down" unicode="&#102;" d="M248 89c0 0 0 0 0 0 0 0 1-1 1-1 0 0 0 0 0 0 0 0 1 0 1-1 1 0 1-1 2-1 0 0 0 0 0 0 0 0 0 0 0 0 1 0 3-1 4-1 1 0 3 1 4 1 0 0 0 0 0 0 0 0 0 0 0 0 1 0 1 1 2 1 0 1 1 1 1 1 0 0 0 0 0 0 0 0 1 1 1 1 0 0 0 0 0 0l106 113c4 5 4 11 0 15-4 4-11 4-15 0l-88-94 0 293c0 6-5 11-11 11-6 0-11-5-11-11l0-293-88 94c-4 4-11 4-15 0-4-4-4-10 0-15z"/>
<glyph glyph-name="arrow-left" unicode="&#103;" d="M85 256c0-1 1-1 1-2 0-1 0-1 0-2 0 0 0 0 0 0 0-1 1-1 1-1 0-1 0-1 0-1 1 0 1-1 1-1 0 0 0 0 0 0 0 0 1-1 1-1 0 0 0 0 0 0l113-106c2-2 5-3 8-3 2 0 5 1 7 3 4 4 4 11 0 15l-94 88 293 0c6 0 11 5 11 11 0 6-5 11-11 11l-293 0 94 88c4 4 4 11 0 15-4 4-10 4-15 0l-113-106c0 0 0 0 0 0 0 0-1-1-1-1 0 0 0 0 0 0 0 0 0-1-1-1 0 0 0 0 0-1 0 0-1 0-1-1 0 0 0 0 0 0 0-1 0-1 0-2 0-1-1-1-1-2 0 0 0 0 0 0 0 0 0 0 0 0z"/>
<glyph glyph-name="arrow-right" unicode="&#104;" d="M96 245l293 0-94-88c-4-4-4-11 0-15 2-2 5-3 7-3 3 0 6 1 8 3l113 106c0 0 0 0 0 0 0 0 1 1 1 1 0 0 0 0 0 0 0 0 0 1 1 1 0 0 0 0 0 1 0 0 1 0 1 1 0 0 0 0 0 0 0 1 0 1 0 2 0 1 1 1 1 2 0 0 0 0 0 0 0 0 0 0 0 0 0 1-1 1-1 2 0 1 0 1 0 2 0 0 0 0 0 0 0 1-1 1-1 1 0 1 0 1 0 1-1 0-1 1-1 1 0 0 0 0 0 0 0 0-1 1-1 1 0 0 0 0 0 0l-113 106c-5 4-11 4-15 0-4-4-4-11 0-15l94-88-293 0c-6 0-11-5-11-11 0-6 5-11 11-11z"/>
<glyph glyph-name="arrow-up" unicode="&#105;" d="M149 292c3 0 6 1 8 3l88 94 0-293c0-6 5-11 11-11 6 0 11 5 11 11l0 293 88-94c2-2 5-3 8-3 2 0 5 1 7 3 4 4 4 10 0 15l-106 113c0 0 0 0 0 0 0 0-1 1-1 1 0 0 0 0 0 0 0 0-1 0-1 1 0 0 0 0-1 0 0 0 0 1-1 1 0 0 0 0 0 0-1 0-1 0-2 0-1 0-1 1-2 1 0 0 0 0 0 0 0 0 0 0 0 0-1 0-1-1-2-1-1 0-1 0-2 0 0 0 0 0 0 0-1 0-1-1-1-1-1 0-1 0-1 0 0-1-1-1-1-1 0 0 0 0 0 0 0 0-1-1-1-1 0 0 0 0 0 0l-106-113c-4-5-4-11 0-15 2-2 5-3 7-3z"/>
<glyph glyph-name="bin" unicode="&#106;" d="M299 427c11 0 21-10 21-22l0-21 85 0c6 0 11-5 11-11 0-6-5-10-11-10l-21 0 0-256c0-12-10-22-21-22l-203 0c-12 0-21 10-21 22l0 256-22 0c-6 0-10 4-10 10 0 6 4 11 10 11l86 0 0 21c0 12 9 22 21 22z m64-64l-203 0 0-256 203 0z m-155-54c3 0 5-2 5-5l0-139c0-3-2-5-5-5-3 0-5 2-5 5l0 139c0 3 2 5 5 5z m53 0c3 0 6-2 6-5l0-139c0-3-3-5-6-5-3 0-5 2-5 5l0 139c0 3 2 5 5 5z m54 0c3 0 5-2 5-5l0-139c0-3-2-5-5-5-3 0-6 2-6 5l0 139c0 3 3 5 6 5z m-16 96l-75 0 0-21 75 0z"/>
<glyph glyph-name="car" unicode="&#107;" d="M263 352c12 0 24-5 32-15l51-60 6 0c41 0 75-33 75-74l0-11c0-6-5-11-11-11l-33 0c-5-18-22-32-42-32-20 0-36 14-41 32l-88 0c-5-18-21-32-41-32-20 0-37 14-42 32l-33 0c-6 0-11 5-11 11l0 64c0 12 10 21 22 21l15 0 30 53c8 14 22 22 37 22z m-92-139c-12 0-22-9-22-21 0-12 10-21 22-21 11 0 21 9 21 21 0 12-10 21-21 21z m170 0c-11 0-21-9-21-21 0-12 10-21 21-21 12 0 22 9 22 21 0 12-10 21-22 21z m11 43l-245 0 0-53 22 0c5 18 22 32 42 32 20 0 36-14 41-32l88 0c5 18 21 32 41 32 20 0 37-14 42-32l22 0c0 29-24 53-53 53z m-139 75l-24 0c-7 0-14-4-18-11l-25-43 67 0z m50 0l-28 0 0-54 83 0-39 46c-4 5-10 8-16 8z"/>
<glyph glyph-name="card" unicode="&#108;" d="M395 363c11 0 21-10 21-22l0-170c0-12-10-22-21-22l-278 0c-11 0-21 10-21 22l0 170c0 12 10 22 21 22z m0-96l-278 0 0-96 278 0z m-187-75c3 0 5-2 5-5 0-3-2-6-5-6l-75 0c-3 0-5 3-5 6 0 3 2 5 5 5z m187 107l-278 0 0-22 278 0z m0 42l-278 0 0-32 278 0z"/>
<glyph glyph-name="caret-down" unicode="&#109;" d="M118 352l276 0c19 0 29-23 15-37l-138-138c-8-8-22-8-30 0l-138 138c-14 14-4 37 15 37z"/>
<glyph glyph-name="stats" unicode="&#110;" d="M416 117l-11 0 0 118c0 6-4 10-10 10l-64 0c-6 0-11-4-11-10l0-118-21 0 0 288c0 6-5 11-11 11l-64 0c-6 0-11-5-11-11l0-288-21 0 0 192c0 6-5 11-11 11l-64 0c-6 0-10-5-10-11l0-192-11 0c-6 0-11-4-11-10 0-6 5-11 11-11l320 0c6 0 11 5 11 11 0 6-5 10-11 10z m-75 107l43 0 0-107-43 0z m-106 171l42 0 0-278-42 0z m-107-96l43 0 0-182-43 0z"/>
<glyph glyph-name="shopping-card" unicode="&#111;" d="M171 181c-18 0-32-14-32-32 0-17 14-32 32-32 17 0 32 15 32 32 0 18-15 32-32 32z m0-42c-6 0-11 4-11 10 0 6 5 11 11 11 6 0 10-5 10-11 0-6-4-10-10-10z m138 10c0 18-14 32-32 32-17 0-32-14-32-32 0-17 15-32 32-32 18 0 32 15 32 32z m-42 0c0 6 4 11 10 11 6 0 11-5 11-11 0-6-5-10-11-10-6 0-10 4-10 10z m160 235l-64 0c-5 0-9-3-11-7l-51-164-154 0-27 107 125 0c6 0 11 5 11 11 0 6-5 10-11 10l-138 0c-4 0-7-1-9-4-2-2-2-6-2-9l32-128c2-5 6-8 11-8l170 0c5 0 9 3 11 7l51 164 56 0c6 0 10 4 10 10 0 6-4 11-10 11z"/>
<glyph glyph-name="phone" unicode="&#112;" d="M394 195c-2 1-4 2-5 4-8 6-16 12-24 18l-5 3c-27 19-51 15-67-10-4-5-7-6-10-6-2 0-5 1-9 2-32 15-54 36-68 66-6 14-2 20 6 25 7 5 21 15 20 34-1 20-42 76-61 83-9 3-17 3-26 0-21-7-36-20-44-36-7-16-7-34 1-54 42-102 117-177 224-223 5-2 10-3 14-4 1 0 2 0 2-1l4 0c29 0 59 27 67 51 10 26-8 39-19 48z m-1-41c-6-18-29-36-47-37 0 1-1 1-2 1-3 1-7 1-10 3-101 43-172 114-212 211-6 14-6 27-1 37 5 11 15 20 30 25 3 0 5 1 7 1 2 0 3-1 5-1 11-4 47-53 48-65 0-5-3-8-11-14-13-9-25-24-13-52 15-34 42-59 79-76 6-3 12-4 17-4 8 0 19 2 27 15 9 12 16 12 18 12 5 0 12-2 19-8l5-3c8-5 16-11 24-17 1-1 3-3 5-4 12-9 16-13 12-24z"/>
<glyph glyph-name="park" unicode="&#113;" d="M363 427c11 0 21-10 21-22l0-298c0-12-10-22-21-22l-214 0c-11 0-21 10-21 22l0 298c0 12 10 22 21 22z m0-22l-214 0 0-298 214 0z m-118-128c30 0 54-24 54-53 0-29-24-53-54-53l-10 0 0-32c0-6-5-11-11-11-6 0-11 5-11 11l0 128c0 6 5 10 11 10z m0-21l-10 0 0-64 10 0c18 0 32 14 32 32 0 18-14 32-32 32z m80 117c3 0 6-2 6-5l0-32c0-3-3-5-6-5l-138 0c-3 0-6 2-6 5l0 32c0 3 3 5 6 5z m-5-10l-128 0 0-22 128 0z"/>
<glyph glyph-name="menu" unicode="&#114;" d="M416 363l-320 0c-6 0-11-5-11-11 0-6 5-11 11-11l320 0c6 0 11 5 11 11 0 6-5 11-11 11z m-320-86l245 0c6 0 11 5 11 11 0 6-5 11-11 11l-245 0c-6 0-11-5-11-11 0-6 5-11 11-11z m0-64l171 0c6 0 10 5 10 11 0 6-4 11-10 11l-171 0c-6 0-11-5-11-11 0-6 5-11 11-11z m0-64l171 0c6 0 10 5 10 11 0 6-4 11-10 11l-171 0c-6 0-11-5-11-11 0-6 5-11 11-11z"/>
<glyph glyph-name="list" unicode="&#115;" d="M128 320c24 0 43 19 43 43 0 23-19 42-43 42-24 0-43-19-43-42 0-24 19-43 43-43z m0 64c12 0 21-10 21-21 0-12-9-22-21-22-12 0-21 10-21 22 0 11 9 21 21 21z m0-171c24 0 43 19 43 43 0 24-19 43-43 43-24 0-43-19-43-43 0-24 19-43 43-43z m0 64c12 0 21-9 21-21 0-12-9-21-21-21-12 0-21 9-21 21 0 12 9 21 21 21z m0-170c24 0 43 19 43 42 0 24-19 43-43 43-24 0-43-19-43-43 0-23 19-42 43-42z m0 64c12 0 21-10 21-22 0-11-9-21-21-21-12 0-21 10-21 21 0 12 9 22 21 22z m288 202l-213 0c-6 0-11-4-11-10 0-6 5-11 11-11l213 0c6 0 11 5 11 11 0 6-5 10-11 10z m0-106l-213 0c-6 0-11-5-11-11 0-6 5-11 11-11l213 0c6 0 11 5 11 11 0 6-5 11-11 11z m0-107l-213 0c-6 0-11-5-11-11 0-6 5-10 11-10l213 0c6 0 11 4 11 10 0 6-5 11-11 11z"/>
<glyph glyph-name="copy" unicode="&#116;" d="M259 363c3 0 6-1 8-4l71-72c2-2 3-5 3-8l0-183c0-6-4-11-10-11l-192 0c-6 0-11 5-11 11l0 256c0 6 5 11 11 11z m-4-22l-106 0 0-234 171 0 0 160-53 0c-6 0-11 4-11 10l0 63z m111-175l0-21-11 0 0 21z m26 0l0-11c0-6-4-10-10-10l-11 0 0 21z m0 33l0-22-21 0 0 22z m0 33l0-22-21 0 0 22z m0 33l0-22-21 0 0 22z m0 33l0-22-21 0 0 22z m-115 20l0-30 30 0z m115 13l0-22-21 0 0 22z m-11 36l8-7c2-2 3-5 3-8l0-10-21 0 0 6-4 4z m-23 21l15-14-14-16-15 14z m-157 6l0-22-21 0 0 22z m134 14l15-13-14-16-15 13z m-25 19c3 0 5-1 7-3l10-9-14-16-7 6-3 0 0 22z m-48 0l0-22-20 0 0 22z m-30 0l0-22-21 0 0 22z m61 0l0-22-21 0 0 22z m-92 0l0-22-21 0 0 11c0 6 4 11 10 11z"/>
<glyph glyph-name="cross" unicode="&#117;" d="M292 256l132 132c4 3 4 9 0 12l-24 24c-3 3-9 3-12 0l-132-132-132 132c-3 3-9 3-12 0l-24-24c-3-3-3-9 0-12l132-132-132-132c-3-3-3-9 0-12l24-24c3-4 9-4 12 0l132 132 109-110 23-22c3-4 9-4 12 0l24 24c4 3 4 9 0 12z"/>
<glyph glyph-name="check" unicode="&#118;" d="M408 370l-205-206-99 100c-5 4-11 4-16 0-4-5-4-11 0-16l107-106c2-2 5-3 8-3 2 0 5 1 7 3l214 213c4 4 4 11 0 15-5 4-11 4-16 0z"/>
<glyph glyph-name="chat" unicode="&#119;" d="M404 427l-296 0c-12 0-23-11-23-23l0-228c0-12 11-22 23-22l86 0 53-65c2-2 6-4 9-4 3 0 7 2 9 4l53 65 86 0c12 0 23 10 23 22l0 228c0 12-11 23-23 23z m0-251l-91 0c-3 0-7-1-9-4l-48-58-48 58c-2 3-6 4-9 4l-91 0 0 228 296 0z m-233 148l170 0c3 0 6 3 6 6 0 3-3 6-6 6l-170 0c-3 0-6-3-6-6 0-3 3-6 6-6z m148-22l-126 0c-3 0-5-3-5-6 0-3 2-6 5-6l126 0c3 0 5 3 5 6 0 3-2 6-5 6z m-23-35l-80 0c-3 0-6-2-6-5 0-3 3-6 6-6l80 0c3 0 6 3 6 6 0 3-3 5-6 5z"/>
<glyph glyph-name="caret-up" unicode="&#120;" d="M394 171l-276 0c-19 0-29 23-15 36l138 138c8 9 22 9 30 0l138-138c14-13 4-36-15-36z"/>
<glyph glyph-name="caret-right" unicode="&#121;" d="M160 118l0 276c0 19 23 29 37 15l138-138c8-8 8-22 0-30l-138-138c-14-14-37-4-37 15z"/>
<glyph glyph-name="caret-left" unicode="&#122;" d="M341 394l0-276c0-20-23-29-36-16l-139 139c-8 8-8 22 0 30l139 139c13 13 36 4 36-16z"/>
<glyph glyph-name="stats2" unicode="&#65;" d="M107 96l298 0c6 0 11 5 11 11 0 6-5 10-11 10l-64 0 0 177 22 22 0-39c0-6 4-10 10-10 6 0 11 4 11 10l0 64c0 2 0 3-1 4-1 3-3 5-6 6-1 1-2 1-4 1l-64 0c-6 0-10-5-10-11 0-6 4-10 10-10l39 0-81-81-57 56c-4 4-11 4-15 0l-64-64c-4-4-4-11 0-15 2-2 5-3 8-3l0-107-22 0 0 288c0 6-4 11-10 11-6 0-11-5-11-11l0-298c0-6 5-11 11-11z m106 21l0 156 22-21 0-135z m64 113l22 22 0-135-22 0z m54-113l-22 0 0 145 22 22z m-64 107l0-107-22 0 0 124 14-14c2-2 5-3 8-3z m-64 60l0-167-22 0 0 145z m-54-54l22 22 0-135-22 0z"/>
<glyph glyph-name="suitcase" unicode="&#66;" d="M288 395c29 0 53-24 53-54l43 0c24 0 43-19 43-42l0-150c0-23-19-42-43-42l-256 0c-24 0-43 19-43 42l0 150c0 23 19 42 43 42l43 0c0 30 24 54 53 54z m75-75l-214 0 0-23c4 1 7 2 11 2 18 0 32-15 32-32 0-18-14-32-32-32-4 0-7 0-11 2l0-109 214 0 0 89-41-14c0 0-1 0-2 0 0 0-1 0-2 0-1 1-2 2-3 3l-16 51c-1 3 1 6 3 7l61 21z m-224 0l-11 0c-12 0-21-10-21-21l0-150c0-11 9-21 21-21l11 0 0 115c-7 6-11 15-11 24 0 9 4 17 11 23z m245 0l-11 0 0-32c1 0 2 0 2-1 2 0 3-1 3-3l16-51c1-2 0-5-3-6l-18-6 0-93 11 0c12 0 21 10 21 21l0 150c0 11-9 21-21 21z m-181-117c23 0 42-15 42-32 0-18-19-32-42-32-24 0-43 14-43 32 0 17 19 32 43 32z m0-11c-18 0-32-10-32-21 0-12 14-22 32-22 17 0 32 10 32 22 0 11-15 21-32 21z m167 84l-59-20 13-41 59 20z m-210 12c-5 0-9-2-13-4-5-4-8-11-8-17 0-7 3-13 8-17 4-3 8-5 13-5 12 0 21 10 21 22 0 11-9 21-21 21z m128 85l-64 0c-18 0-32-14-32-32l128 0c0 18-14 32-32 32z"/>
<glyph glyph-name="thumb" unicode="&#67;" d="M128 277l85 0c12 0 22 10 22 22l0 85c0 12-10 21-22 21l-85 0c-12 0-21-9-21-21l0-85c0-12 9-22 21-22z m0 107l85 0 0-85-85 0z m0-277l85 0c12 0 22 9 22 21l0 85c0 12-10 22-22 22l-85 0c-12 0-21-10-21-22l0-85c0-12 9-21 21-21z m0 106l85 0 0-85-85 0z m171 64l85 0c12 0 21 10 21 22l0 85c0 12-9 21-21 21l-85 0c-12 0-22-9-22-21l0-85c0-12 10-22 22-22z m0 107l85 0 0-85-85 0z m0-277l85 0c12 0 21 9 21 21l0 85c0 12-9 22-21 22l-85 0c-12 0-22-10-22-22l0-85c0-12 10-21 22-21z m0 106l85 0 0-85-85 0z"/>
<glyph glyph-name="user-add" unicode="&#69;" d="M213 427c47 0 86-39 86-86 0-22-9-43-24-58 7-4 13-8 19-13 11 5 24 7 37 7 53 0 96-43 96-96 0-53-43-96-96-96-53 0-96 43-96 96 0 32 15 60 39 77-6 4-11 7-17 10-13-8-28-12-44-12-16 0-30 4-43 12-38-17-63-55-63-97l0-75c0-6-5-11-11-11-6 0-11 5-11 11l0 75c0 46 26 89 67 112-15 15-24 36-24 58 0 47 38 86 85 86z m118-171c-42 0-75-33-75-75 0-41 33-74 75-74 41 0 74 33 74 74 0 42-33 75-74 75z m0-21c6 0 10-5 10-11l0-32 32 0c6 0 11-5 11-11 0-6-5-10-11-10l-32 0 0-32c0-6-4-11-10-11-6 0-11 5-11 11l0 32-32 0c-6 0-11 4-11 10 0 6 5 11 11 11l32 0 0 32c0 6 5 11 11 11z m-118 170c-35 0-64-28-64-64 0-35 29-64 64-64 36 0 64 29 64 64 0 36-28 64-64 64z"/>
<glyph glyph-name="user-delete" unicode="&#70;" d="M213 427c47 0 86-39 86-86 0-22-9-43-24-58 7-4 13-8 19-13 11 5 24 7 37 7 53 0 96-43 96-96 0-53-43-96-96-96-53 0-96 43-96 96 0 32 15 60 39 77-6 4-11 7-17 10-13-8-28-12-44-12-16 0-30 4-43 12-38-17-63-55-63-97l0-75c0-6-5-11-11-11-6 0-11 5-11 11l0 75c0 46 26 89 67 112-15 15-24 36-24 58 0 47 38 86 85 86z m118-171c-42 0-75-33-75-75 0-41 33-74 75-74 41 0 74 33 74 74 0 42-33 75-74 75z m-40-35c4 4 11 4 15 0l25-25 24 25c4 4 11 4 15 0 4-4 4-11 0-15l-24-25 24-24c4-4 4-11 0-15-2-2-5-3-7-3-3 0-6 1-8 3l-24 24-25-24c-2-2-5-3-7-3-3 0-6 1-8 3-4 4-4 11 0 15l25 24-25 25c-4 4-4 11 0 15z m-78 184c-35 0-64-28-64-64 0-35 29-64 64-64 36 0 64 29 64 64 0 36-28 64-64 64z"/>
<glyph glyph-name="user-papers" unicode="&#71;" d="M395 384c17 0 32-14 32-32l0-192c0-18-15-32-32-32l-278 0c-17 0-32 14-32 32l0 192c0 18 15 32 32 32z m0-21l-278 0c-6 0-10-5-10-11l0-192c0-6 4-11 10-11l278 0c6 0 10 5 10 11l0 192c0 6-4 11-10 11z m-214-32c24 0 43-19 43-43 0-12-5-23-13-30 3-2 6-5 8-7 10-10 16-23 16-38l0-26c0-3-3-6-6-6l-96 0c-3 0-5 3-5 6l0 26c0 18 9 35 24 45-8 7-13 18-13 30 0 24 19 43 42 43z m-20-80c-14-8-22-22-22-38l0-21 85 0 0 21c0 12-4 22-12 30-3 3-7 6-10 8-6-4-13-6-21-6-7 0-14 2-20 6z m164-16c3 0 6-3 6-6 0-3-3-5-6-5l-64 0c-3 0-5 2-5 5 0 3 2 6 5 6z m54 32c3 0 5-3 5-6 0-3-2-5-5-5l-118 0c-3 0-5 2-5 5 0 3 2 6 5 6z m-198 53c-17 0-32-14-32-32 0-18 15-32 32-32 18 0 32 14 32 32 0 18-14 32-32 32z m198-21c3 0 5-3 5-6 0-3-2-5-5-5l-118 0c-3 0-5 2-5 5 0 3 2 6 5 6z m0 32c3 0 5-3 5-6 0-3-2-5-5-5l-118 0c-3 0-5 2-5 5 0 3 2 6 5 6z"/>
<glyph glyph-name="user" unicode="&#68;" d="M128 117c0-8 0-15 1-22 1-6 5-10 11-10l232 0c6 0 10 4 11 10 1 7 1 14 1 22 0 67-29 120-76 146 20 16 33 40 33 68 0 47-38 85-85 85-47 0-85-38-85-85 0-28 13-52 33-68-47-26-76-79-76-146z m64 214c0 35 29 64 64 64 35 0 64-29 64-64 0-36-29-64-64-64-35 0-64 28-64 64z m35-81c9-3 19-5 29-5 10 0 20 2 29 5 48-18 78-69 78-133 0-3 0-7-1-10l-42 0 0 30c0 3-2 6-5 6-3 0-6-3-6-6l0-30-106 0 0 30c0 3-3 6-6 6-3 0-5-3-5-6l0-30-42 0c-1 3-1 7-1 10 0 64 30 115 78 133z"/>
<glyph glyph-name="eye-2" unicode="&#76;" d="M256 384c-82 0-146-49-224-128 67-68 124-128 224-128 100 0 173 76 224 127-52 58-125 129-224 129z m0-219c-49 0-90 41-90 91 0 50 41 91 90 91 49 0 90-41 90-91 0-50-41-91-90-91z m0 123c0 8 3 15 8 21-3 0-5 0-8 0-29 0-52-24-52-53 0-29 23-53 52-53 29 0 52 24 52 53 0 2 0 5 0 7-6-4-12-7-20-7-18 0-32 14-32 32z"/>
<glyph glyph-name="eye-disabled" unicode="&#77;" d="M376 354l72 71-23 23-77-78c-28 14-58 23-92 23-82 0-146-52-224-137 35-37 67-73 103-98l-71-71 23-23 77 77c27-14 57-22 92-22 100 0 173 82 224 135-28 35-62 72-104 100z m-210-98c0 50 41 91 90 91 19 0 37-6 52-17l-51-50c-1 2-1 5-1 8 0 8 3 15 8 21-3 0-5 0-8 0-29 0-52-24-52-53 0-9 2-17 5-24l-27-27c-10 14-16 32-16 51z m90-91c-19 0-37 6-52 17l28 27c7-4 15-6 24-6 29 0 52 24 52 53 0 2 0 5 0 7-6-4-12-7-20-7-3 0-5 0-8 1l50 50c10-14 16-32 16-51 0-50-41-91-90-91z"/>
<glyph glyph-name="camera-2" unicode="&#72;" d="M457 384l-34 0-19 38c-12 17-26 26-41 26l-107 0c-15 0-30-9-41-26l-28-38-59 0 0 11c0 17-16 32-33 32l-20 0c-17 0-32-15-32-32l0-12c-35-4-43-27-43-46l0-222c0-32 20-51 55-51l402 0c35 0 55 19 55 51l0 222c0 21-9 47-55 47z m-382 21l20 0c6 0 12-5 12-10l0-11-43 0 1 11c0 5 5 10 10 10z m416-290c0-21-11-30-34-30l-402 0c-23 0-34 9-34 30l0 222c0 15 6 26 32 26l139 0c3 0 7 1 9 4l32 43c4 6 13 17 23 17l107 0c10 0 19-11 22-16l21-42c2-4 6-6 10-6l41 0c31 0 34-13 34-26z m-182 248c-70 0-128-58-128-128 0-71 58-128 128-128 71 0 128 57 128 128 0 70-57 128-128 128z m0-235c-58 0-106 48-106 107 0 58 48 106 106 106 59 0 107-48 107-106 0-59-48-107-107-107z m0 181c-41 0-74-33-74-74 0-42 33-75 74-75 42 0 75 33 75 75 0 41-33 74-75 74z m0-128c-29 0-53 24-53 54 0 29 24 53 53 53 30 0 54-24 54-53 0-30-24-54-54-54z m-224 160c-23 0-42-19-42-42 0-24 19-43 42-43 24 0 43 19 43 43 0 23-19 42-43 42z m0-64c-11 0-21 10-21 22 0 11 10 21 21 21 12 0 22-10 22-21 0-12-10-22-22-22z"/>
</font>
</defs>
</svg>
